  0
SECTION
  2
HEADER
  9
$ACADVER
  1
AC1009
  9
$DWGCODEPAGE
  3
ansi_1252
  9
$INSBASE
 10
0.0
 20
0.0
 30
0.0
  9
$EXTMIN
 10
0.0
 20
0.0
 30
0.0
  9
$EXTMAX
 10
210.0
 20
297.0
 30
0.0
  9
$LIMMIN
 10
0.0
 20
0.0
  9
$LIMMAX
 10
210.0
 20
297.0
  9
$ORTHOMODE
 70
     0
  9
$REGENMODE
 70
     1
  9
$FILLMODE
 70
     1
  9
$QTEXTMODE
 70
     0
  9
$MIRRTEXT
 70
     1
  9
$DRAGMODE
 70
     2
  9
$LTSCALE
 40
1.0
  9
$OSMODE
 70
    37
  9
$ATTMODE
 70
     1
  9
$TEXTSIZE
 40
2.0
  9
$TRACEWID
 40
1.0
  9
$TEXTSTYLE
  7
STANDARD
  9
$CLAYER
  8
0
  9
$CELTYPE
  6
BYLAYER
  9
$CECOLOR
 62
   256
  9
$DIMSCALE
 40
1.0
  9
$DIMASZ
 40
2.0
  9
$DIMEXO
 40
1.0
  9
$DIMDLI
 40
3.75
  9
$DIMRND
 40
0.0
  9
$DIMDLE
 40
0.0
  9
$DIMEXE
 40
1.0
  9
$DIMTP
 40
0.0
  9
$DIMTM
 40
0.0
  9
$DIMTXT
 40
2.0
  9
$DIMCEN
 40
2.5
  9
$DIMTSZ
 40
0.0
  9
$DIMTOL
 70
     0
  9
$DIMLIM
 70
     0
  9
$DIMTIH
 70
     1
  9
$DIMTOH
 70
     1
  9
$DIMSE1
 70
     0
  9
$DIMSE2
 70
     0
  9
$DIMTAD
 70
     1
  9
$DIMZIN
 70
     0
  9
$DIMBLK
  1

  9
$DIMASO
 70
     1
  9
$DIMSHO
 70
     1
  9
$DIMPOST
  1

  9
$DIMAPOST
  1

  9
$DIMALT
 70
     0
  9
$DIMALTD
 70
     3
  9
$DIMALTF
 40
0.0393700787
  9
$DIMLFAC
 40
1.0
  9
$DIMTOFL
 70
     1
  9
$DIMTVP
 40
0.0
  9
$DIMTIX
 70
     0
  9
$DIMSOXD
 70
     0
  9
$DIMSAH
 70
     0
  9
$DIMBLK1
  1

  9
$DIMBLK2
  1

  9
$DIMSTYLE
  2
ISO-25
  9
$DIMCLRD
 70
     0
  9
$DIMCLRE
 70
     0
  9
$DIMCLRT
 70
     0
  9
$DIMTFAC
 40
1.0
  9
$DIMGAP
 40
1.524
  9
$LUNITS
 70
     2
  9
$LUPREC
 70
     2
  9
$SKETCHINC
 40
1.0
  9
$FILLETRAD
 40
10.0
  9
$AUNITS
 70
     0
  9
$AUPREC
 70
     2
  9
$MENU
  1
.
  9
$ELEVATION
 40
0.0
  9
$PELEVATION
 40
0.0
  9
$THICKNESS
 40
0.0
  9
$LIMCHECK
 70
     0
  9
$CHAMFERA
 40
0.0
  9
$CHAMFERB
 40
0.0
  9
$SKPOLY
 70
     0
  9
$TDCREATE
 40
2459359.584509086
  9
$TDUPDATE
 40
2459359.584512662
  9
$TDINDWG
 40
0.0000000116
  9
$TDUSRTIMER
 40
0.0000000116
  9
$USRTIMER
 70
     1
  9
$ANGBASE
 50
0.0
  9
$ANGDIR
 70
     0
  9
$PDMODE
 70
     0
  9
$PDSIZE
 40
-1.0
  9
$PLINEWID
 40
0.0
  9
$COORDS
 70
     1
  9
$SPLFRAME
 70
     0
  9
$SPLINETYPE
 70
     6
  9
$SPLINESEGS
 70
     8
  9
$ATTDIA
 70
     0
  9
$ATTREQ
 70
     1
  9
$HANDLING
 70
     1
  9
$HANDSEED
  5
195
  9
$SURFTAB1
 70
     6
  9
$SURFTAB2
 70
     6
  9
$SURFTYPE
 70
     6
  9
$SURFU
 70
     6
  9
$SURFV
 70
     6
  9
$UCSNAME
  2

  9
$UCSORG
 10
0.0
 20
0.0
 30
0.0
  9
$UCSXDIR
 10
1.0
 20
0.0
 30
0.0
  9
$UCSYDIR
 10
0.0
 20
1.0
 30
0.0
  9
$PUCSNAME
  2

  9
$PUCSORG
 10
0.0
 20
0.0
 30
0.0
  9
$PUCSXDIR
 10
1.0
 20
0.0
 30
0.0
  9
$PUCSYDIR
 10
0.0
 20
1.0
 30
0.0
  9
$USERI1
 70
     0
  9
$USERI2
 70
     0
  9
$USERI3
 70
     0
  9
$USERI4
 70
     0
  9
$USERI5
 70
     0
  9
$USERR1
 40
0.0
  9
$USERR2
 40
0.0
  9
$USERR3
 40
0.0
  9
$USERR4
 40
0.0
  9
$USERR5
 40
0.0
  9
$WORLDVIEW
 70
     1
  9
$SHADEDGE
 70
     3
  9
$SHADEDIF
 70
    70
  9
$TILEMODE
 70
     1
  9
$MAXACTVP
 70
    64
  9
$PLIMCHECK
 70
     0
  9
$PEXTMIN
 10
1.0000000000E+20
 20
1.0000000000E+20
 30
1.0000000000E+20
  9
$PEXTMAX
 10
-1.0000000000E+20
 20
-1.0000000000E+20
 30
-1.0000000000E+20
  9
$PLIMMIN
 10
0.0
 20
0.0
  9
$PLIMMAX
 10
420.0
 20
297.0
  9
$UNITMODE
 70
     0
  9
$VISRETAIN
 70
     1
  9
$PLINEGEN
 70
     0
  9
$PSLTSCALE
 70
     1
  0
ENDSEC
  0
SECTION
  2
TABLES
  0
TABLE
  2
VPORT
 70
     1
  0
VPORT
  2
*ACTIVE
 70
     0
 10
0.0
 20
0.0
 11
1.0
 21
1.0
 12
105.0
 22
148.5
 13
0.0
 23
0.0
 14
10.0
 24
10.0
 15
10.0
 25
10.0
 16
0.0
 26
0.0
 36
1.0
 17
0.0
 27
0.0
 37
0.0
 40
297.0
 41
0.7070707071
 42
50.0
 43
0.0
 44
0.0
 50
0.0
 51
0.0
 71
     0
 72
  2000
 73
     1
 74
     3
 75
     0
 76
     0
 77
     0
 78
     0
  0
ENDTAB
  0
TABLE
  2
LTYPE
 70
     6
  0
LTYPE
  2
CONTINUOUS
 70
     0
  3
Solid line
 72
    65
 73
     0
 40
0.0
  0
LTYPE
  2
HIDDEN
 70
     0
  3
Hidden __ __ __ __ __ __ __ __ __ __ __ __ __ __
 72
    65
 73
     2
 40
1.905
 49
1.27
 49
-0.635
  0
LTYPE
  2
PHANTOM
 70
     0
  3
Phantom ______  __  __  ______  __  __  ______
 72
    65
 73
     6
 40
12.7
 49
6.35
 49
-1.27
 49
1.27
 49
-1.27
 49
1.27
 49
-1.27
  0
LTYPE
  2
CENTER
 70
     0
  3
Center ____ _ ____ _ ____ _ ____ _ ____ _ ____
 72
    65
 73
     4
 40
10.16
 49
6.35
 49
-1.27
 49
1.27
 49
-1.27
  0
LTYPE
  2
CENTERX2
 70
     0
  3
Center (2x) ________  __  ________  __  _____
 72
    65
 73
     4
 40
20.32
 49
12.7
 49
-2.54
 49
2.54
 49
-2.54
  0
LTYPE
  2
DOT2
 70
     0
  3
Dot (.5x) ........................................
 72
    65
 73
     2
 40
0.635
 49
0.0
 49
-0.635
  0
ENDTAB
  0
TABLE
  2
LAYER
 70
    53
  0
LAYER
  2
0
 70
     0
 62
     7
  6
CONTINUOUS
  0
LAYER
  2
SLD-0
 70
     0
 62
     7
  6
CONTINUOUS
  0
LAYER
  2
LEVEL0
 70
     0
 62
     7
  6
CONTINUOUS
  0
LAYER
  2
1
 70
     0
 62
     7
  6
CONTINUOUS
  0
LAYER
  2
2
 70
     0
 62
     7
  6
CONTINUOUS
  0
LAYER
  2
3
 70
     0
 62
     7
  6
CONTINUOUS
  0
LAYER
  2
4
 70
     0
 62
     7
  6
CONTINUOUS
  0
LAYER
  2
5
 70
     0
 62
     7
  6
CONTINUOUS
  0
LAYER
  2
6
 70
     0
 62
     7
  6
CONTINUOUS
  0
LAYER
  2
7
 70
     0
 62
     7
  6
CONTINUOUS
  0
LAYER
  2
8
 70
     0
 62
     7
  6
CONTINUOUS
  0
LAYER
  2
9
 70
     0
 62
     7
  6
CONTINUOUS
  0
LAYER
  2
10
 70
     0
 62
     7
  6
CONTINUOUS
  0
LAYER
  2
11
 70
     0
 62
     7
  6
CONTINUOUS
  0
LAYER
  2
12
 70
     0
 62
     7
  6
CONTINUOUS
  0
LAYER
  2
13
 70
     0
 62
     7
  6
CONTINUOUS
  0
LAYER
  2
14
 70
     0
 62
     7
  6
CONTINUOUS
  0
LAYER
  2
15
 70
     0
 62
     7
  6
CONTINUOUS
  0
LAYER
  2
16
 70
     0
 62
     7
  6
CONTINUOUS
  0
LAYER
  2
17
 70
     0
 62
     7
  6
CONTINUOUS
  0
LAYER
  2
18
 70
     0
 62
     7
  6
CONTINUOUS
  0
LAYER
  2
19
 70
     0
 62
     7
  6
CONTINUOUS
  0
LAYER
  2
20
 70
     0
 62
     7
  6
CONTINUOUS
  0
LAYER
  2
21
 70
     0
 62
     7
  6
CONTINUOUS
  0
LAYER
  2
22
 70
     0
 62
     7
  6
CONTINUOUS
  0
LAYER
  2
23
 70
     0
 62
     7
  6
CONTINUOUS
  0
LAYER
  2
24
 70
     0
 62
     7
  6
CONTINUOUS
  0
LAYER
  2
25
 70
     0
 62
     7
  6
CONTINUOUS
  0
LAYER
  2
26
 70
     0
 62
     7
  6
CONTINUOUS
  0
LAYER
  2
27
 70
     0
 62
     7
  6
CONTINUOUS
  0
LAYER
  2
28
 70
     0
 62
     7
  6
CONTINUOUS
  0
LAYER
  2
29
 70
     0
 62
     7
  6
CONTINUOUS
  0
LAYER
  2
30
 70
     0
 62
     7
  6
CONTINUOUS
  0
LAYER
  2
31
 70
     0
 62
     7
  6
CONTINUOUS
  0
LAYER
  2
32
 70
     0
 62
     7
  6
CONTINUOUS
  0
LAYER
  2
33
 70
     0
 62
     7
  6
CONTINUOUS
  0
LAYER
  2
34
 70
     0
 62
     7
  6
CONTINUOUS
  0
LAYER
  2
35
 70
     0
 62
     7
  6
CONTINUOUS
  0
LAYER
  2
36
 70
     0
 62
     7
  6
CONTINUOUS
  0
LAYER
  2
37
 70
     0
 62
     7
  6
CONTINUOUS
  0
LAYER
  2
38
 70
     0
 62
     7
  6
CONTINUOUS
  0
LAYER
  2
39
 70
     0
 62
     7
  6
CONTINUOUS
  0
LAYER
  2
40
 70
     0
 62
     7
  6
CONTINUOUS
  0
LAYER
  2
41
 70
     0
 62
     7
  6
CONTINUOUS
  0
LAYER
  2
42
 70
     0
 62
     7
  6
CONTINUOUS
  0
LAYER
  2
43
 70
     0
 62
     7
  6
CONTINUOUS
  0
LAYER
  2
44
 70
     0
 62
     7
  6
CONTINUOUS
  0
LAYER
  2
45
 70
     0
 62
     7
  6
CONTINUOUS
  0
LAYER
  2
46
 70
     0
 62
     7
  6
CONTINUOUS
  0
LAYER
  2
47
 70
     0
 62
     7
  6
CONTINUOUS
  0
LAYER
  2
48
 70
     0
 62
     7
  6
CONTINUOUS
  0
LAYER
  2
49
 70
     0
 62
     7
  6
CONTINUOUS
  0
LAYER
  2
50
 70
     0
 62
     7
  6
CONTINUOUS
  0
ENDTAB
  0
TABLE
  2
STYLE
 70
     1
  0
STYLE
  2
STANDARD
 70
     0
 40
0.0
 41
1.0
 50
0.0
 71
     0
 42
2.0
  3
txt
  4

  0
ENDTAB
  0
TABLE
  2
VIEW
 70
     0
  0
ENDTAB
  0
TABLE
  2
UCS
 70
     0
  0
ENDTAB
  0
TABLE
  2
APPID
 70
     1
  0
APPID
  2
ACAD
 70
     0
  0
ENDTAB
  0
TABLE
  2
DIMSTYLE
 70
     4
  0
DIMSTYLE
  2
ISO-25
 70
     0
  3

  4

  5

  6

  7

 40
1.0
 41
2.5
 42
0.625
 43
3.75
 44
1.25
 45
0.0
 46
0.0
 47
0.0
 48
0.0
140
2.5
141
2.5
142
0.0
143
0.0393700787
144
1.0
145
0.0
146
1.0
147
0.625
 71
     0
 72
     0
 73
     0
 74
     0
 75
     0
 76
     0
 77
     1
 78
     8
170
     0
171
     3
172
     1
173
     0
174
     0
175
     0
176
     0
177
     0
178
     0
  0
DIMSTYLE
  2
SLDDIMSTYLE0
 70
     0
  3

  4

  5

  6
CLOSED
  7
CLOSED
 40
1.0
 41
2.0
 42
0.0625
 43
0.38
 44
0.0
 45
0.000000001
 46
0.0
 47
0.3
 48
0.2
140
2.0
141
0.09
142
0.0
143
0.0393700787
144
1.0
145
0.0
146
1.0
147
0.5
 71
     1
 72
     0
 73
     0
 74
     0
 75
     0
 76
     0
 77
     1
 78
    12
170
     1
171
     3
172
     0
173
     1
174
     0
175
     0
176
     0
177
     0
178
     0
  0
DIMSTYLE
  2
SLDDIMSTYLE1
 70
     0
  3

  4

  5

  6
CLOSED
  7
CLOSED
 40
1.0
 41
2.0
 42
0.0625
 43
0.38
 44
0.0
 45
0.000000001
 46
0.0
 47
0.0
 48
0.0
140
2.0
141
0.0
142
0.0
143
0.0393700787
144
1.0
145
0.0
146
1.0
147
0.5
 71
     0
 72
     0
 73
     0
 74
     0
 75
     0
 76
     0
 77
     1
 78
    12
170
     1
171
     2
172
     0
173
     1
174
     0
175
     0
176
     0
177
     0
178
     0
  0
DIMSTYLE
  2
SLDDIMSTYLE2
 70
     0
  3

  4

  5

  6
CLOSED
  7
CLOSED
 40
1.0
 41
2.0
 42
0.0625
 43
0.38
 44
0.0
 45
0.000000001
 46
0.0
 47
0.0
 48
0.0
140
2.0
141
0.09
142
0.0
143
0.0393700787
144
1.0
145
0.0
146
1.0
147
0.5
 71
     0
 72
     0
 73
     0
 74
     0
 75
     0
 76
     0
 77
     1
 78
    12
170
     1
171
     2
172
     0
173
     1
174
     0
175
     0
176
     0
177
     0
178
     0
  0
ENDTAB
  0
ENDSEC
  0
SECTION
  2
BLOCKS
  0
BLOCK
  8
0
  2
$MODEL_SPACE
 70
     0
 10
0.0
 20
0.0
 30
0.0
  3
$MODEL_SPACE
  1

  0
ENDBLK
  5
21
  8
0
  0
BLOCK
 67
     1
  8
0
  2
$PAPER_SPACE
 70
     0
 10
0.0
 20
0.0
 30
0.0
  3
$PAPER_SPACE
  1

  0
ENDBLK
  5
1D
 67
     1
  8
0
  0
BLOCK
  8
0
  2
SW_NOTE_0
 70
     0
 10
0.0
 20
0.0
 30
0.0
  3
SW_NOTE_0
  1

  0
TEXT
  5
AB
  8
LEVEL0
 62
     0
 10
0.0
 20
1.308534146
 30
0.0
 40
3.7041666667
  1
MATTE FACEPLATE CUTOUT ROUTING TEMPLATE
 41
0.6641025641
 11
0.0
 21
0.0
 31
0.0
 73
     1
  0
TEXT
  5
AC
  8
LEVEL0
 62
     0
 10
0.0
 20
-10.5692438402
 30
0.0
 40
3.7041666667
  1
SCALE 1:1
 41
0.7
 11
0.0
 21
-11.8777779862
 31
0.0
 73
     1
  0
ENDBLK
  5
AA
  8
0
  0
BLOCK
  8
0
  2
_CLOSED
 70
     0
 10
0.0
 20
0.0
 30
0.0
  3
_CLOSED
  1

  0
LINE
  5
BF
  8
0
  6
BYBLOCK
 62
     0
 10
-1.0
 20
0.166667
 30
0.0
 11
0.0
 21
0.0
 31
0.0
  0
LINE
  5
C0
  8
0
  6
BYBLOCK
 62
     0
 10
0.0
 20
0.0
 30
0.0
 11
-1.0
 21
-0.166667
 31
0.0
  0
LINE
  5
C1
  8
0
  6
BYBLOCK
 62
     0
 10
-1.0
 20
0.166667
 30
0.0
 11
-1.0
 21
-0.166667
 31
0.0
  0
LINE
  5
C2
  8
0
  6
BYBLOCK
 62
     0
 10
0.0
 20
0.0
 30
0.0
 11
-1.0
 21
0.0
 31
0.0
  0
ENDBLK
  5
BE
  8
0
  0
BLOCK
  8
0
  2
_D
 70
     0
 10
0.0
 20
0.0
 30
0.0
  3
_D
  1

  0
INSERT
  5
C6
  8
LEVEL0
  2
_CLOSED
 10
112.5054339618
 20
206.6404969152
 30
-8.5
 41
2.0
 42
2.0
 50
90.0
  0
INSERT
  5
C7
  8
LEVEL0
  2
_CLOSED
 10
112.5054339618
 20
111.0404969152
 30
-8.5
 41
2.0
 42
2.0
 50
270.0
  0
LINE
  5
C8
  8
LEVEL0
 10
101.7547392957
 20
140.3119496525
 30
0.0
 11
101.7547392957
 21
139.7025746399
 31
0.0
  0
LINE
  5
C9
  8
LEVEL0
 10
101.7547392957
 20
139.7025746399
 30
0.0
 11
106.9269616828
 21
139.7025746399
 31
0.0
  0
LINE
  5
CA
  8
LEVEL0
 10
106.9269616828
 20
139.7025746399
 30
0.0
 11
106.9269616828
 21
140.3119496525
 31
0.0
  0
LINE
  5
CB
  8
LEVEL0
 10
101.7547392957
 20
155.9675044835
 30
0.0
 11
101.7547392957
 21
156.5768794961
 31
0.0
  0
LINE
  5
CC
  8
LEVEL0
 10
101.7547392957
 20
156.5768794961
 30
0.0
 11
106.9269616828
 21
156.5768794961
 31
0.0
  0
LINE
  5
CD
  8
LEVEL0
 10
106.9269616828
 20
156.5768794961
 30
0.0
 11
106.9269616828
 21
155.9675044835
 31
0.0
  0
LINE
  5
CE
  8
LEVEL0
 10
112.5054339618
 20
206.6404969152
 30
0.0
 11
112.5054339618
 21
111.0404969152
 31
0.0
  0
TEXT
  5
CF
  8
LEVEL0
 10
111.7683583084
 20
137.6154219022
 30
-8.5
 40
2.0
  1
  
 50
90.0
 41
0.7
 11
112.4748784323
 21
137.6154219022
 31
-8.5
 73
     1
  0
TEXT
  5
D0
  8
LEVEL0
 10
106.1898860294
 20
140.3119496525
 30
-8.5
 40
2.0
  1
3.764
 50
90.0
 41
0.7
 11
106.8964061533
 21
140.3119496525
 31
-8.5
 73
     1
  0
TEXT
  5
D1
  8
LEVEL0
 10
106.1898860294
 20
146.9619495318
 30
-8.5
 40
2.0
  1
 
 50
90.0
 41
0.7
 11
106.8964061533
 21
146.9619495318
 31
-8.5
 73
     1
  0
TEXT
  5
D2
  8
LEVEL0
 10
103.6343303654
 20
147.7008385107
 30
-8.5
 40
2.0
  1
+
 50
90.0
 41
0.7
 11
104.3408504893
 21
147.7008385107
 31
-8.5
 73
     1
  0
TEXT
  5
D3
  8
LEVEL0
 10
106.2204415589
 20
148.0661162921
 30
-8.5
 40
2.0
  1
-
 50
90.0
 41
0.7
 11
106.9269616828
 21
148.0661162921
 31
-8.5
 73
     1
  0
TEXT
  5
D4
  8
LEVEL0
 10
103.6343303654
 20
149.3175046042
 30
-8.5
 40
2.0
  1
0.012
 50
90.0
 41
0.7
 11
104.3408504893
 21
149.3175046042
 31
-8.5
 73
     1
  0
TEXT
  5
D5
  8
LEVEL0
 10
106.2204415589
 20
149.3175046042
 30
-8.5
 40
2.0
  1
0.008
 50
90.0
 41
0.7
 11
106.9269616828
 21
149.3175046042
 31
-8.5
 73
     1
  0
TEXT
  5
D6
  8
LEVEL0
 10
111.7989143036
 20
142.5286162401
 30
-8.5
 40
2.0
  1
95.6
 50
90.0
 41
0.7
 11
112.5054344275
 21
142.5286162401
 31
-8.5
 73
     1
  0
TEXT
  5
D7
  8
LEVEL0
 10
111.7989143036
 20
147.7008381615
 30
-8.5
 40
2.0
  1
 
 50
90.0
 41
0.7
 11
112.5054344275
 21
147.7008381615
 31
-8.5
 73
     1
  0
TEXT
  5
D8
  8
LEVEL0
 10
109.2128031101
 20
148.4397271404
 30
-8.5
 40
2.0
  1
+
 50
90.0
 41
0.7
 11
109.9193232339
 21
148.4397271404
 31
-8.5
 73
     1
  0
TEXT
  5
D9
  8
LEVEL0
 10
111.7989143036
 20
148.8050049218
 30
-8.5
 40
2.0
  1
-
 50
90.0
 41
0.7
 11
112.5054344275
 21
148.8050049218
 31
-8.5
 73
     1
  0
TEXT
  5
DA
  8
LEVEL0
 10
109.2128031101
 20
150.0563936996
 30
-8.5
 40
2.0
  1
0.3
 50
90.0
 41
0.7
 11
109.9193232339
 21
150.0563936996
 31
-8.5
 73
     1
  0
TEXT
  5
DB
  8
LEVEL0
 10
111.7989143036
 20
150.0563936996
 30
-8.5
 40
2.0
  1
0.2
 50
90.0
 41
0.7
 11
112.5054344275
 21
150.0563936996
 31
-8.5
 73
     1
  0
TEXT
  5
DC
  8
LEVEL0
 10
111.7683583084
 20
157.1862549743
 30
-8.5
 40
2.0
  1
  
 50
90.0
 41
0.7
 11
112.4748784323
 21
157.1862549743
 31
-8.5
 73
     1
  0
ENDBLK
  5
C5
  8
0
  0
BLOCK
  8
0
  2
_D_1
 70
     0
 10
0.0
 20
0.0
 30
0.0
  3
_D_1
  1

  0
INSERT
  5
E1
  8
LEVEL0
  2
_CLOSED
 10
62.8470079727
 20
168.4729081134
 30
-8.5
 41
2.0
 42
2.0
 50
180.0
  0
INSERT
  5
E2
  8
LEVEL0
  2
_CLOSED
 10
158.4470079727
 20
168.4729081134
 30
-8.5
 41
2.0
 42
2.0
 50
0.0
  0
LINE
  5
E3
  8
LEVEL0
 10
85.7633725384
 20
179.2236027795
 30
0.0
 11
85.1539975258
 21
179.2236027795
 31
0.0
  0
LINE
  5
E4
  8
LEVEL0
 10
85.1539975258
 20
179.2236027795
 30
0.0
 11
85.1539975258
 21
174.0513803924
 31
0.0
  0
LINE
  5
E5
  8
LEVEL0
 10
85.1539975258
 20
174.0513803924
 30
0.0
 11
85.7633725384
 21
174.0513803924
 31
0.0
  0
LINE
  5
E6
  8
LEVEL0
 10
101.4189273694
 20
179.2236027795
 30
0.0
 11
102.028302382
 21
179.2236027795
 31
0.0
  0
LINE
  5
E7
  8
LEVEL0
 10
102.028302382
 20
179.2236027795
 30
0.0
 11
102.028302382
 21
174.0513803924
 31
0.0
  0
LINE
  5
E8
  8
LEVEL0
 10
102.028302382
 20
174.0513803924
 30
0.0
 11
101.4189273694
 21
174.0513803924
 31
0.0
  0
LINE
  5
E9
  8
LEVEL0
 10
62.8470079727
 20
168.4729081134
 30
0.0
 11
158.4470079727
 21
168.4729081134
 31
0.0
  0
TEXT
  5
EA
  8
LEVEL0
 10
83.0668447881
 20
169.2099837668
 30
-8.5
 40
2.0
  1
  
 41
0.7
 11
83.0668447881
 21
168.5034636429
 31
-8.5
 73
     1
  0
TEXT
  5
EB
  8
LEVEL0
 10
85.7633725384
 20
174.7884560458
 30
-8.5
 40
2.0
  1
3.764
 41
0.7
 11
85.7633725384
 21
174.081935922
 31
-8.5
 73
     1
  0
TEXT
  5
EC
  8
LEVEL0
 10
92.4133724177
 20
174.7884560458
 30
-8.5
 40
2.0
  1
 
 41
0.7
 11
92.4133724177
 21
174.081935922
 31
-8.5
 73
     1
  0
TEXT
  5
ED
  8
LEVEL0
 10
93.1522613966
 20
177.3440117098
 30
-8.5
 40
2.0
  1
+
 41
0.7
 11
93.1522613966
 21
176.637491586
 31
-8.5
 73
     1
  0
TEXT
  5
EE
  8
LEVEL0
 10
93.517539178
 20
174.7579005163
 30
-8.5
 40
2.0
  1
-
 41
0.7
 11
93.517539178
 21
174.0513803924
 31
-8.5
 73
     1
  0
TEXT
  5
EF
  8
LEVEL0
 10
94.7689274901
 20
177.3440117098
 30
-8.5
 40
2.0
  1
0.012
 41
0.7
 11
94.7689274901
 21
176.637491586
 31
-8.5
 73
     1
  0
TEXT
  5
F0
  8
LEVEL0
 10
94.7689274901
 20
174.7579005163
 30
-8.5
 40
2.0
  1
0.008
 41
0.7
 11
94.7689274901
 21
174.0513803924
 31
-8.5
 73
     1
  0
TEXT
  5
F1
  8
LEVEL0
 10
87.980039126
 20
169.1794277716
 30
-8.5
 40
2.0
  1
95.6
 41
0.7
 11
87.980039126
 21
168.4729076478
 31
-8.5
 73
     1
  0
TEXT
  5
F2
  8
LEVEL0
 10
93.1522610474
 20
169.1794277716
 30
-8.5
 40
2.0
  1
 
 41
0.7
 11
93.1522610474
 21
168.4729076478
 31
-8.5
 73
     1
  0
TEXT
  5
F3
  8
LEVEL0
 10
93.8911500263
 20
171.7655389651
 30
-8.5
 40
2.0
  1
+
 41
0.7
 11
93.8911500263
 21
171.0590188413
 31
-8.5
 73
     1
  0
TEXT
  5
F4
  8
LEVEL0
 10
94.2564278077
 20
169.1794277716
 30
-8.5
 40
2.0
  1
-
 41
0.7
 11
94.2564278077
 21
168.4729076478
 31
-8.5
 73
     1
  0
TEXT
  5
F5
  8
LEVEL0
 10
95.5078165855
 20
171.7655389651
 30
-8.5
 40
2.0
  1
0.3
 41
0.7
 11
95.5078165855
 21
171.0590188413
 31
-8.5
 73
     1
  0
TEXT
  5
F6
  8
LEVEL0
 10
95.5078165855
 20
169.1794277716
 30
-8.5
 40
2.0
  1
0.2
 41
0.7
 11
95.5078165855
 21
168.4729076478
 31
-8.5
 73
     1
  0
TEXT
  5
F7
  8
LEVEL0
 10
102.6376778602
 20
169.2099837668
 30
-8.5
 40
2.0
  1
  
 41
0.7
 11
102.6376778602
 21
168.5034636429
 31
-8.5
 73
     1
  0
ENDBLK
  5
E0
  8
0
  0
BLOCK
  8
0
  2
_D_2
 70
     0
 10
0.0
 20
0.0
 30
0.0
  3
_D_2
  1

  0
INSERT
  5
FD
  8
LEVEL0
  2
_CLOSED
 10
63.3049579984
 20
206.1610868742
 30
-8.5
 41
2.0
 42
2.0
 50
315.3247309185
  0
LINE
  5
FE
  8
LEVEL0
 10
75.0195218548
 20
203.1901496886
 30
0.0
 11
74.5845614064
 21
203.6169368889
 31
0.0
  0
LINE
  5
FF
  8
LEVEL0
 10
74.5845614064
 20
203.6169368889
 30
0.0
 11
72.3608907333
 21
201.3506814986
 31
0.0
  0
LINE
  5
100
  8
LEVEL0
 10
72.3608907333
 20
201.3506814986
 30
0.0
 11
72.7958511817
 21
200.9238942983
 31
0.0
  0
LINE
  5
101
  8
LEVEL0
 10
78.7113567999
 20
199.5676872193
 30
0.0
 11
79.1463172483
 21
199.140900019
 31
0.0
  0
LINE
  5
102
  8
LEVEL0
 10
79.1463172483
 20
199.140900019
 30
0.0
 11
76.9226465752
 21
196.8746446287
 31
0.0
  0
LINE
  5
103
  8
LEVEL0
 10
76.9226465752
 20
196.8746446287
 30
0.0
 11
76.4876861268
 21
197.301431829
 31
0.0
  0
LINE
  5
104
  8
LEVEL0
 10
63.3049579984
 20
206.1610868742
 30
0.0
 11
78.852567293
 21
190.7887222335
 31
0.0
  0
LINE
  5
105
  8
LEVEL0
 10
63.3049579984
 20
206.1610868742
 30
0.0
 11
60.5699463904
 21
208.8652708384
 31
0.0
  0
TEXT
  5
106
  8
LEVEL0
 10
73.2906757796
 20
201.4281951041
 30
-8.5
 40
2.0
  1
0.06
 50
315.5434056988
 41
0.7
 11
72.7958511817
 21
200.9238942983
 31
-8.5
 73
     1
  0
TEXT
  5
107
  8
LEVEL0
 10
71.1443598881
 20
199.3419133073
 30
-8.5
 40
2.0
  1
R1.6
 50
315.5434056988
 41
0.7
 11
70.6495352902
 21
198.8376125015
 31
-8.5
 73
     1
  0
TEXT
  5
108
  8
LEVEL0
 10
75.7780758086
 20
194.8380768469
 30
-8.5
 40
2.0
  1
 TYP
 50
315.5434056988
 41
0.7
 11
75.2832512107
 21
194.3337760411
 31
-8.5
 73
     1
  0
ENDBLK
  5
FC
  8
0
  0
BLOCK
  8
0
  2
_D_3
 70
     0
 10
0.0
 20
0.0
 30
0.0
  3
_D_3
  1

  0
INSERT
  5
10E
  8
LEVEL0
  2
_CLOSED
 10
44.7768089753
 20
103.3004969152
 30
-8.5
 41
2.0
 42
2.0
 50
270.0
  0
INSERT
  5
10F
  8
LEVEL0
  2
_CLOSED
 10
44.7768089753
 20
214.3804969152
 30
-8.5
 41
2.0
 42
2.0
 50
90.0
  0
LINE
  5
110
  8
LEVEL0
 10
38.6094479281
 20
158.2445809693
 30
0.0
 11
38.6094479281
 21
157.6352059567
 31
0.0
  0
LINE
  5
111
  8
LEVEL0
 10
38.6094479281
 20
157.6352059567
 30
0.0
 11
41.7844478898
 21
157.6352059567
 31
0.0
  0
LINE
  5
112
  8
LEVEL0
 10
41.7844478898
 20
157.6352059567
 30
0.0
 11
41.7844478898
 21
158.2445809693
 31
0.0
  0
LINE
  5
113
  8
LEVEL0
 10
38.6094479281
 20
163.4168028906
 30
0.0
 11
38.6094479281
 21
164.0261779032
 31
0.0
  0
LINE
  5
114
  8
LEVEL0
 10
38.6094479281
 20
164.0261779032
 30
0.0
 11
41.7844478898
 21
164.0261779032
 31
0.0
  0
LINE
  5
115
  8
LEVEL0
 10
41.7844478898
 20
164.0261779032
 30
0.0
 11
41.7844478898
 21
163.4168028906
 31
0.0
  0
LINE
  5
116
  8
LEVEL0
 10
50.5970079727
 20
103.3004969152
 30
0.0
 11
43.7768089753
 21
103.3004969152
 31
0.0
  0
LINE
  5
117
  8
LEVEL0
 10
50.5970079727
 20
214.3804969152
 30
0.0
 11
43.7768089753
 21
214.3804969152
 31
0.0
  0
LINE
  5
118
  8
LEVEL0
 10
44.7768089753
 20
103.3004969152
 30
0.0
 11
44.7768089753
 21
214.3804969152
 31
0.0
  0
TEXT
  5
119
  8
LEVEL0
 10
44.0397333219
 20
155.548053219
 30
-8.5
 40
2.0
  1
  
 50
90.0
 41
0.7
 11
44.7462534457
 21
155.548053219
 31
-8.5
 73
     1
  0
TEXT
  5
11A
  8
LEVEL0
 10
41.0779277659
 20
158.2445809693
 30
-8.5
 40
2.0
  1
4.37
 50
90.0
 41
0.7
 11
41.7844478898
 21
158.2445809693
 31
-8.5
 73
     1
  0
TEXT
  5
11B
  8
LEVEL0
 10
44.0702890843
 20
157.5056921067
 30
-8.5
 40
2.0
  1
111.1
 50
90.0
 41
0.7
 11
44.7768092081
 21
157.5056921067
 31
-8.5
 73
     1
  0
TEXT
  5
11C
  8
LEVEL0
 10
44.0397333219
 20
164.6355533814
 30
-8.5
 40
2.0
  1
  
 50
90.0
 41
0.7
 11
44.7462534457
 21
164.6355533814
 31
-8.5
 73
     1
  0
ENDBLK
  5
10D
  8
0
  0
BLOCK
  8
0
  2
_D_4
 70
     0
 10
0.0
 20
0.0
 30
0.0
  3
_D_4
  1

  0
INSERT
  5
121
  8
LEVEL0
  2
_CLOSED
 10
55.0970079727
 20
84.0127957527
 30
-8.5
 41
2.0
 42
2.0
 50
180.0
  0
INSERT
  5
122
  8
LEVEL0
  2
_CLOSED
 10
166.1970079727
 20
84.0127957527
 30
-8.5
 41
2.0
 42
2.0
 50
0.0
  0
LINE
  5
123
  8
LEVEL0
 10
109.9193226519
 20
90.1801567998
 30
0.0
 11
109.3099476393
 21
90.1801567998
 31
0.0
  0
LINE
  5
124
  8
LEVEL0
 10
109.3099476393
 20
90.1801567998
 30
0.0
 11
109.3099476393
 21
87.0051568382
 31
0.0
  0
LINE
  5
125
  8
LEVEL0
 10
109.3099476393
 20
87.0051568382
 30
0.0
 11
109.9193226519
 21
87.0051568382
 31
0.0
  0
LINE
  5
126
  8
LEVEL0
 10
115.0915445732
 20
90.1801567998
 30
0.0
 11
115.7009195858
 21
90.1801567998
 31
0.0
  0
LINE
  5
127
  8
LEVEL0
 10
115.7009195858
 20
90.1801567998
 30
0.0
 11
115.7009195858
 21
87.0051568382
 31
0.0
  0
LINE
  5
128
  8
LEVEL0
 10
115.7009195858
 20
87.0051568382
 30
0.0
 11
115.0915445732
 21
87.0051568382
 31
0.0
  0
LINE
  5
129
  8
LEVEL0
 10
55.0970079727
 20
98.8004969152
 30
0.0
 11
55.0970079727
 21
83.0127957527
 31
0.0
  0
LINE
  5
12A
  8
LEVEL0
 10
166.1970079727
 20
98.8004969152
 30
0.0
 11
166.1970079727
 21
83.0127957527
 31
0.0
  0
LINE
  5
12B
  8
LEVEL0
 10
55.0970079727
 20
84.0127957527
 30
0.0
 11
166.1970079727
 21
84.0127957527
 31
0.0
  0
TEXT
  5
12C
  8
LEVEL0
 10
107.2227949016
 20
84.7498714061
 30
-8.5
 40
2.0
  1
  
 41
0.7
 11
107.2227949016
 21
84.0433512822
 31
-8.5
 73
     1
  0
TEXT
  5
12D
  8
LEVEL0
 10
109.9193226519
 20
87.711676962
 30
-8.5
 40
2.0
  1
4.37
 41
0.7
 11
109.9193226519
 21
87.0051568382
 31
-8.5
 73
     1
  0
TEXT
  5
12E
  8
LEVEL0
 10
109.1804337893
 20
84.7193156437
 30
-8.5
 40
2.0
  1
111.1
 41
0.7
 11
109.1804337893
 21
84.0127955199
 31
-8.5
 73
     1
  0
TEXT
  5
12F
  8
LEVEL0
 10
116.310295064
 20
84.7498714061
 30
-8.5
 40
2.0
  1
  
 41
0.7
 11
116.310295064
 21
84.0433512822
 31
-8.5
 73
     1
  0
ENDBLK
  5
120
  8
0
  0
BLOCK
  8
0
  2
_D_5
 70
     0
 10
0.0
 20
0.0
 30
0.0
  3
_D_5
  1

  0
INSERT
  5
134
  8
LEVEL0
  2
_CLOSED
 10
82.6561364936
 20
103.3004969152
 30
-8.5
 41
2.0
 42
2.0
 50
270.0
  0
INSERT
  5
135
  8
LEVEL0
  2
_CLOSED
 10
82.6561364936
 20
111.0404969152
 30
-8.5
 41
2.0
 42
2.0
 50
90.0
  0
LINE
  5
136
  8
LEVEL0
 10
76.4887754465
 20
95.1461724044
 30
0.0
 11
76.4887754465
 21
94.5367973918
 31
0.0
  0
LINE
  5
137
  8
LEVEL0
 10
76.4887754465
 20
94.5367973918
 30
0.0
 11
79.6637754081
 21
94.5367973918
 31
0.0
  0
LINE
  5
138
  8
LEVEL0
 10
79.6637754081
 20
94.5367973918
 30
0.0
 11
79.6637754081
 21
95.1461724044
 31
0.0
  0
LINE
  5
139
  8
LEVEL0
 10
76.4887754465
 20
100.3183943258
 30
0.0
 11
76.4887754465
 21
100.9277693384
 31
0.0
  0
LINE
  5
13A
  8
LEVEL0
 10
76.4887754465
 20
100.9277693384
 30
0.0
 11
79.6637754081
 21
100.9277693384
 31
0.0
  0
LINE
  5
13B
  8
LEVEL0
 10
79.6637754081
 20
100.9277693384
 30
0.0
 11
79.6637754081
 21
100.3183943258
 31
0.0
  0
LINE
  5
13C
  8
LEVEL0
 10
59.5970079727
 20
103.3004969152
 30
0.0
 11
83.6561364936
 21
103.3004969152
 31
0.0
  0
LINE
  5
13D
  8
LEVEL0
 10
82.6561364936
 20
103.3004969152
 30
0.0
 11
82.6561364936
 21
92.4496446542
 31
0.0
  0
LINE
  5
13E
  8
LEVEL0
 10
82.6561364936
 20
103.3004969152
 30
0.0
 11
82.6561364936
 21
111.0404969152
 31
0.0
  0
TEXT
  5
13F
  8
LEVEL0
 10
81.9190608403
 20
92.4496446542
 30
-8.5
 40
2.0
  1
  
 50
90.0
 41
0.7
 11
82.6255809641
 21
92.4496446542
 31
-8.5
 73
     1
  0
TEXT
  5
140
  8
LEVEL0
 10
78.9572552843
 20
95.1461724044
 30
-8.5
 40
2.0
  1
0.30
 50
90.0
 41
0.7
 11
79.6637754081
 21
95.1461724044
 31
-8.5
 73
     1
  0
TEXT
  5
141
  8
LEVEL0
 10
81.9496166026
 20
95.8850613834
 30
-8.5
 40
2.0
  1
7.7
 50
90.0
 41
0.7
 11
82.6561367265
 21
95.8850613834
 31
-8.5
 73
     1
  0
TEXT
  5
142
  8
LEVEL0
 10
81.9190608403
 20
101.5371448166
 30
-8.5
 40
2.0
  1
  
 50
90.0
 41
0.7
 11
82.6255809641
 21
101.5371448166
 31
-8.5
 73
     1
  0
ENDBLK
  5
133
  8
0
  0
BLOCK
  8
0
  2
_D_6
 70
     0
 10
0.0
 20
0.0
 30
0.0
  3
_D_6
  1

  0
INSERT
  5
147
  8
LEVEL0
  2
_CLOSED
 10
55.0970079727
 20
117.8720457896
 30
-8.5
 41
2.0
 42
2.0
 50
180.0
  0
INSERT
  5
148
  8
LEVEL0
  2
_CLOSED
 10
62.8470079727
 20
117.8720457896
 30
-8.5
 41
2.0
 42
2.0
 50
0.0
  0
LINE
  5
149
  8
LEVEL0
 10
47.9501238746
 20
124.0394068367
 30
0.0
 11
47.340748862
 21
124.0394068367
 31
0.0
  0
LINE
  5
14A
  8
LEVEL0
 10
47.340748862
 20
124.0394068367
 30
0.0
 11
47.340748862
 21
120.8644068751
 31
0.0
  0
LINE
  5
14B
  8
LEVEL0
 10
47.340748862
 20
120.8644068751
 30
0.0
 11
47.9501238746
 21
120.8644068751
 31
0.0
  0
LINE
  5
14C
  8
LEVEL0
 10
53.122345796
 20
124.0394068367
 30
0.0
 11
53.7317208086
 21
124.0394068367
 31
0.0
  0
LINE
  5
14D
  8
LEVEL0
 10
53.7317208086
 20
124.0394068367
 30
0.0
 11
53.7317208086
 21
120.8644068751
 31
0.0
  0
LINE
  5
14E
  8
LEVEL0
 10
53.7317208086
 20
120.8644068751
 30
0.0
 11
53.122345796
 21
120.8644068751
 31
0.0
  0
LINE
  5
14F
  8
LEVEL0
 10
55.0970079727
 20
107.8004969152
 30
0.0
 11
55.0970079727
 21
118.8720457896
 31
0.0
  0
LINE
  5
150
  8
LEVEL0
 10
55.0970079727
 20
117.8720457896
 30
0.0
 11
45.2535961244
 21
117.8720457896
 31
0.0
  0
LINE
  5
151
  8
LEVEL0
 10
55.0970079727
 20
117.8720457896
 30
0.0
 11
62.8470079727
 21
117.8720457896
 31
0.0
  0
TEXT
  5
152
  8
LEVEL0
 10
45.2535961244
 20
118.609121443
 30
-8.5
 40
2.0
  1
  
 50
360.0
 41
0.7
 11
45.2535961244
 21
117.9026013191
 31
-8.5
 73
     1
  0
TEXT
  5
153
  8
LEVEL0
 10
47.9501238746
 20
121.570926999
 30
-8.5
 40
2.0
  1
0.31
 50
360.0
 41
0.7
 11
47.9501238746
 21
120.8644068751
 31
-8.5
 73
     1
  0
TEXT
  5
154
  8
LEVEL0
 10
48.6890128536
 20
118.5785656806
 30
-8.5
 40
2.0
  1
7.8
 50
360.0
 41
0.7
 11
48.6890128536
 21
117.8720455568
 31
-8.5
 73
     1
  0
TEXT
  5
155
  8
LEVEL0
 10
54.3410962868
 20
118.609121443
 30
-8.5
 40
2.0
  1
  
 50
360.0
 41
0.7
 11
54.3410962868
 21
117.9026013191
 31
-8.5
 73
     1
  0
ENDBLK
  5
146
  8
0
  0
BLOCK
  8
0
  2
SW_NOTE_0_1
 70
     0
 10
0.0
 20
0.0
 30
0.0
  3
SW_NOTE_0_1
  1

  0
TEXT
  5
159
  8
LEVEL0
 62
     0
 10
19.5345708995
 20
10.1166031115
 30
0.0
 40
2.0
  1
MARK SCREW LOCATIONS
 41
0.665
 11
19.5345708995
 21
9.4100829877
 31
0.0
 73
     1
  0
LINE
  5
15A
  8
LEVEL0
 62
     0
 10
18.9957012484
 20
11.0980695158
 30
0.0
 11
0.0
 21
0.0
 31
0.0
  0
INSERT
  5
160
  8
LEVEL0
 62
     0
  2
_DOT
 10
0.0
 20
0.0
 30
8.5
 41
0.6153846154
 42
0.6153846154
 50
210.2952283917
  0
ENDBLK
  5
158
  8
0
  0
BLOCK
  8
0
  2
_DOT
 70
     0
 10
0.0
 20
0.0
 30
0.0
  3
_DOT
  1

  0
POLYLINE
  5
15E
  8
0
  6
BYBLOCK
 62
     0
 66
     1
 10
0.0
 20
0.0
 30
0.0
 70
     1
 40
0.5
 41
0.5
  0
VERTEX
  5
192
  8
0
  6
BYBLOCK
 62
     0
 10
-0.25
 20
0.0
 30
0.0
 42
1.0
  0
VERTEX
  5
193
  8
0
  6
BYBLOCK
 62
     0
 10
0.25
 20
0.0
 30
0.0
 42
1.0
  0
SEQEND
  5
194
  8
0
  6
BYBLOCK
 62
     0
  0
LINE
  5
15F
  8
0
  6
BYBLOCK
 62
     0
 10
-0.5
 20
0.0
 30
0.0
 11
-1.0
 21
0.0
 31
0.0
  0
ENDBLK
  5
15D
  8
0
  0
BLOCK
  8
0
  2
SW_CENTERMARKSYMBOL_0
 70
     0
 10
0.0
 20
0.0
 30
0.0
  3
SW_CENTERMARKSYMBOL_0
  1

  0
LINE
  5
165
  8
LEVEL0
 62
     0
 10
0.0
 20
0.0
 30
0.0
 11
0.0
 21
2.5
 31
0.0
  0
LINE
  5
166
  8
LEVEL0
 62
     0
 10
0.0
 20
0.0
 30
0.0
 11
-2.5
 21
0.0
 31
0.0
  0
LINE
  5
167
  8
LEVEL0
 62
     0
 10
0.0
 20
0.0
 30
0.0
 11
0.0
 21
-2.5
 31
0.0
  0
LINE
  5
168
  8
LEVEL0
 62
     0
 10
0.0
 20
0.0
 30
0.0
 11
2.5
 21
0.0
 31
0.0
  0
LINE
  5
169
  8
LEVEL0
 62
     0
 10
0.0
 20
2.5
 30
0.0
 11
0.0
 21
3.5
 31
0.0
  0
LINE
  5
16A
  8
LEVEL0
 62
     0
 10
-2.5
 20
0.0
 30
0.0
 11
-3.5
 21
0.0
 31
0.0
  0
LINE
  5
16B
  8
LEVEL0
 62
     0
 10
0.0
 20
-2.5
 30
0.0
 11
0.0
 21
-3.5
 31
0.0
  0
LINE
  5
16C
  8
LEVEL0
 62
     0
 10
2.5
 20
0.0
 30
0.0
 11
3.5
 21
0.0
 31
0.0
  0
ENDBLK
  5
164
  8
0
  0
BLOCK
  8
0
  2
SW_CENTERMARKSYMBOL_1
 70
     0
 10
0.0
 20
0.0
 30
0.0
  3
SW_CENTERMARKSYMBOL_1
  1

  0
LINE
  5
171
  8
LEVEL0
 62
     0
 10
0.0
 20
0.0
 30
0.0
 11
0.0
 21
2.5
 31
0.0
  0
LINE
  5
172
  8
LEVEL0
 62
     0
 10
0.0
 20
0.0
 30
0.0
 11
-2.5
 21
0.0
 31
0.0
  0
LINE
  5
173
  8
LEVEL0
 62
     0
 10
0.0
 20
0.0
 30
0.0
 11
0.0
 21
-2.5
 31
0.0
  0
LINE
  5
174
  8
LEVEL0
 62
     0
 10
0.0
 20
0.0
 30
0.0
 11
2.5
 21
0.0
 31
0.0
  0
LINE
  5
175
  8
LEVEL0
 62
     0
 10
0.0
 20
2.5
 30
0.0
 11
0.0
 21
3.5
 31
0.0
  0
LINE
  5
176
  8
LEVEL0
 62
     0
 10
-2.5
 20
0.0
 30
0.0
 11
-3.5
 21
0.0
 31
0.0
  0
LINE
  5
177
  8
LEVEL0
 62
     0
 10
0.0
 20
-2.5
 30
0.0
 11
0.0
 21
-3.5
 31
0.0
  0
LINE
  5
178
  8
LEVEL0
 62
     0
 10
2.5
 20
0.0
 30
0.0
 11
3.5
 21
0.0
 31
0.0
  0
ENDBLK
  5
170
  8
0
  0
BLOCK
  8
0
  2
SW_CENTERMARKSYMBOL_2
 70
     0
 10
0.0
 20
0.0
 30
0.0
  3
SW_CENTERMARKSYMBOL_2
  1

  0
LINE
  5
17D
  8
LEVEL0
 62
     0
 10
0.0
 20
0.0
 30
0.0
 11
0.0
 21
2.5
 31
0.0
  0
LINE
  5
17E
  8
LEVEL0
 62
     0
 10
0.0
 20
0.0
 30
0.0
 11
-2.5
 21
0.0
 31
0.0
  0
LINE
  5
17F
  8
LEVEL0
 62
     0
 10
0.0
 20
0.0
 30
0.0
 11
0.0
 21
-2.5
 31
0.0
  0
LINE
  5
180
  8
LEVEL0
 62
     0
 10
0.0
 20
0.0
 30
0.0
 11
2.5
 21
0.0
 31
0.0
  0
LINE
  5
181
  8
LEVEL0
 62
     0
 10
0.0
 20
2.5
 30
0.0
 11
0.0
 21
3.5
 31
0.0
  0
LINE
  5
182
  8
LEVEL0
 62
     0
 10
-2.5
 20
0.0
 30
0.0
 11
-3.5
 21
0.0
 31
0.0
  0
LINE
  5
183
  8
LEVEL0
 62
     0
 10
0.0
 20
-2.5
 30
0.0
 11
0.0
 21
-3.5
 31
0.0
  0
LINE
  5
184
  8
LEVEL0
 62
     0
 10
2.5
 20
0.0
 30
0.0
 11
3.5
 21
0.0
 31
0.0
  0
ENDBLK
  5
17C
  8
0
  0
BLOCK
  8
0
  2
SW_CENTERMARKSYMBOL_3
 70
     0
 10
0.0
 20
0.0
 30
0.0
  3
SW_CENTERMARKSYMBOL_3
  1

  0
LINE
  5
189
  8
LEVEL0
 62
     0
 10
0.0
 20
0.0
 30
0.0
 11
0.0
 21
2.5
 31
0.0
  0
LINE
  5
18A
  8
LEVEL0
 62
     0
 10
0.0
 20
0.0
 30
0.0
 11
-2.5
 21
0.0
 31
0.0
  0
LINE
  5
18B
  8
LEVEL0
 62
     0
 10
0.0
 20
0.0
 30
0.0
 11
0.0
 21
-2.5
 31
0.0
  0
LINE
  5
18C
  8
LEVEL0
 62
     0
 10
0.0
 20
0.0
 30
0.0
 11
2.5
 21
0.0
 31
0.0
  0
LINE
  5
18D
  8
LEVEL0
 62
     0
 10
0.0
 20
2.5
 30
0.0
 11
0.0
 21
3.5
 31
0.0
  0
LINE
  5
18E
  8
LEVEL0
 62
     0
 10
-2.5
 20
0.0
 30
0.0
 11
-3.5
 21
0.0
 31
0.0
  0
LINE
  5
18F
  8
LEVEL0
 62
     0
 10
0.0
 20
-2.5
 30
0.0
 11
0.0
 21
-3.5
 31
0.0
  0
LINE
  5
190
  8
LEVEL0
 62
     0
 10
2.5
 20
0.0
 30
0.0
 11
3.5
 21
0.0
 31
0.0
  0
ENDBLK
  5
188
  8
0
  0
ENDSEC
  0
SECTION
  2
ENTITIES
  0
TEXT
  5
A7
  8
LEVEL0
 10
62.0830700762
 20
32.933653561
 30
0.0
 40
3.7041666667
  1
PRINT THIS PAGE 1:1 SCALE
 41
0.644
 11
62.0830700762
 21
31.625119415
 31
0.0
 73
     1
  0
INSERT
  5
AD
  8
LEVEL0
  2
SW_NOTE_0
 10
45.3534829249
 20
252.7173689183
 30
0.0
  0
CIRCLE
  5
AE
  8
0
  6
CONTINUOUS
 62
     7
 10
55.0970079727
 20
214.3804969152
 30
0.0
 40
1.0
  0
CIRCLE
  5
AF
  8
0
  6
CONTINUOUS
 62
     7
 10
166.1970079727
 20
214.3804969152
 30
0.0
 40
1.0
  0
CIRCLE
  5
B0
  8
0
  6
CONTINUOUS
 62
     7
 10
166.1970079727
 20
103.3004969152
 30
0.0
 40
1.0
  0
CIRCLE
  5
B1
  8
0
  6
CONTINUOUS
 62
     7
 10
55.0970079727
 20
103.3004969152
 30
0.0
 40
1.0
  0
ARC
  5
B2
  8
0
  6
CONTINUOUS
 62
     7
 10
64.4470079727
 20
112.6404969152
 30
0.0
 40
1.599999999999994
 50
180.0
 51
270.0
  0
LINE
  5
B3
  8
0
  6
CONTINUOUS
 62
     7
 10
156.8470079727
 20
111.0404969152
 30
0.0
 11
64.4470079727
 21
111.0404969152
 31
0.0
  0
ARC
  5
B4
  8
0
  6
CONTINUOUS
 62
     7
 10
156.8470079727
 20
112.6404969152
 30
0.0
 40
1.599999999999994
 50
270.0
 51
0.0
  0
LINE
  5
B5
  8
0
  6
CONTINUOUS
 62
     7
 10
158.4470079727
 20
205.0404969152
 30
0.0
 11
158.4470079727
 21
112.6404969152
 31
0.0
  0
ARC
  5
B6
  8
0
  6
CONTINUOUS
 62
     7
 10
156.8470079727
 20
205.0404969152
 30
0.0
 40
1.599999999999994
 50
0.0
 51
90.0
  0
LINE
  5
B7
  8
0
  6
CONTINUOUS
 62
     7
 10
64.4470079727
 20
206.6404969152
 30
0.0
 11
156.8470079727
 21
206.6404969152
 31
0.0
  0
ARC
  5
B8
  8
0
  6
CONTINUOUS
 62
     7
 10
64.4470079727
 20
205.0404969152
 30
0.0
 40
1.599999999999994
 50
90.0
 51
180.0
  0
LINE
  5
B9
  8
0
  6
CONTINUOUS
 62
     7
 10
62.8470079727
 20
112.6404969152
 30
0.0
 11
62.8470079727
 21
205.0404969152
 31
0.0
  0
DIMENSION
  5
BA
  8
LEVEL0
  2
_D
 10
112.5054339618
 20
111.0404969152
 30
0.0
 11
112.5054339618
 21
148.1397274172
 31
0.0
 70
   160
  1
<>
  3
SLDDIMSTYLE0
 13
156.8470079727
 23
206.6404969152
 33
0.0
 14
156.8470079727
 24
111.0404969152
 34
0.0
 50
90.0
  0
DIMENSION
  5
DD
  8
LEVEL0
  2
_D_1
 10
158.4470079727
 20
168.4729081134
 30
0.0
 11
93.5911503031
 21
168.4729081134
 31
0.0
 70
   160
  1
<>
  3
SLDDIMSTYLE0
 13
62.8470079727
 23
205.0404969152
 33
0.0
 14
158.4470079727
 24
205.0404969152
 34
0.0
  0
DIMENSION
  5
F8
  8
LEVEL0
  2
_D_2
 10
64.4470079727
 20
205.0404969152
 30
0.0
 11
74.6590900232
 21
195.0203277124
 31
0.0
 70
   164
  1
<> TYP
  3
SLDDIMSTYLE1
 15
63.3049579984
 25
206.1610868742
 35
0.0
 40
0.0
  0
DIMENSION
  5
109
  8
LEVEL0
  2
_D_3
 10
44.7768089753
 20
214.3804969152
 30
0.0
 11
44.7768089753
 21
160.8306922792
 31
0.0
 70
   160
  1
<>
  3
SLDDIMSTYLE2
 13
51.5970079727
 23
103.3004969152
 33
0.0
 14
51.5970079727
 24
214.3804969152
 34
0.0
 50
90.0
  0
DIMENSION
  5
11D
  8
LEVEL0
  2
_D_4
 10
166.1970079727
 20
84.0127957527
 30
0.0
 11
112.5054339618
 21
84.0127957527
 31
0.0
 70
   160
  1
<>
  3
SLDDIMSTYLE2
 13
55.0970079727
 23
99.8004969152
 33
0.0
 14
166.1970079727
 24
99.8004969152
 34
0.0
  0
DIMENSION
  5
130
  8
LEVEL0
  2
_D_5
 10
82.6561364936
 20
111.0404969152
 30
0.0
 11
82.6561364936
 21
97.7322837143
 31
0.0
 70
   160
  1
<>
  3
SLDDIMSTYLE2
 13
58.5970079727
 23
103.3004969152
 33
0.0
 14
64.4470079727
 24
111.0404969152
 34
0.0
 50
90.0
  0
DIMENSION
  5
143
  8
LEVEL0
  2
_D_6
 10
62.8470079727
 20
117.8720457896
 30
0.0
 11
50.5362351845
 21
117.8720457896
 31
0.0
 70
   160
  1
<>
  3
SLDDIMSTYLE2
 13
55.0970079727
 23
106.8004969152
 33
0.0
 14
62.8470079727
 24
112.6404969152
 34
0.0
  0
INSERT
  5
161
  8
LEVEL0
  2
SW_NOTE_0_1
 10
57.4357459769
 20
214.4632123534
 30
0.0
  0
INSERT
  5
16D
  8
LEVEL0
  2
SW_CENTERMARKSYMBOL_0
 10
55.0970079727
 20
214.3804969152
 30
0.0
  0
INSERT
  5
179
  8
LEVEL0
  2
SW_CENTERMARKSYMBOL_1
 10
166.1970079727
 20
214.3804969152
 30
0.0
  0
INSERT
  5
185
  8
LEVEL0
  2
SW_CENTERMARKSYMBOL_2
 10
166.1970079727
 20
103.3004969152
 30
0.0
  0
INSERT
  5
191
  8
LEVEL0
  2
SW_CENTERMARKSYMBOL_3
 10
55.0970079727
 20
103.3004969152
 30
0.0
  0
ENDSEC
  0
EOF
